#TITLE:Super Mario HARDCORE SPEED;
#SUBTITLE:;
#ARTIST:not known;
#TITLETRANSLIT:;
#SUBTITLETRANSLIT:;
#ARTISTTRANSLIT:;
#CREDIT:;
#BANNER:super mario hardcore-banner.bmp;
#BACKGROUND:bn.jpg;
#LYRICSPATH:;
#CDTITLE:cdtitle.gif;
#MUSIC:MRIO HARDCORE REMIX.ogg;
#OFFSET:-2.690;
#SAMPLESTART:32.937;
#SAMPLELENGTH:12.000;
#SELECTABLE:YES;
#BPMS:0.000=205.740,40.000=151.080,67.333=204.740,67.333=205.740,171.000=130.700,188.000=205.740,266.000=151.000;
#STOPS:;
#BGCHANGES:0.000=MARIOHARDCORE.avi=1.000=1=1=0,
245.500=bn.jpg=1.000=0=0=1,
99999=-nosongbg-=1.000=0=0=0 // don't automatically add -songbackground-
;
// cache tags:
#FIRSTBEAT:11.000;
#LASTBEAT:293.000;
#SONGFILENAME:Songs/nhac/MARIOHARDCORE/Super Mario [Euro Mix].sm;
#HASMUSIC:1;
#HASBANNER:1;
#MUSICLENGTH:99.905;
// end cache tags

//---------------dance-single - Copied from Copied f----------------
#NOTES:
     dance-single:
     Copied from Copied f:
     Edit:
     1:
     0.000,0.000,0.000,0.000,0.000,0.000,0.000,0.000,0.000,0.000:
0000
0000
0000
0000
;

//---------------dance-single - Copied from Copied f----------------
#NOTES:
     dance-single:
     Copied from Copied f:
     Edit:
     5:
     0.000,0.000,0.000,0.000,0.000,0.000,0.000,0.000,0.000,0.000:
0000
0000
0000
0000
;

//---------------dance-single - Copied from Copied f----------------
#NOTES:
     dance-single:
     Copied from Copied f:
     Hard:
     10:
     0.754,0.697,0.060,0.280,0.335,493.000,6.000,28.000,0.000,9.000:
0000
0000
0000
0000
,
0000
0000
0000
0000
,
0000
0000
0000
0000
,
1001
0110
1001
1100
,
1000
0100
0000
0000
1000
0100
1000
0100
,
1000
0100
1000
0100
1000
0100
1000
0000
,
1000
0000
0100
0010
0100
0010
0100
0000
,
0001
0010
0001
0010
0100
1000
0100
0000
,
0010
0001
0010
0100
1000
0100
0010
0000
,
0010
0100
0020
0000
0000
0000
0130
0010
,
0001
0000
0000
0000
0000
0000
0001
0000
0000
0000
0010
0000
0100
0000
0010
0000
0100
0000
0010
0000
0000
0001
0000
0000
,
0000
0000
0010
0000
0001
0000
0010
0000
0001
0000
0000
0000
0000
0000
0000
0001
0000
0000
0000
0000
0000
0000
0010
0000
,
0001
0000
0010
0000
0001
0000
0000
0000
0000
0100
0000
0000
0000
0000
0000
0000
0000
0000
1000
0000
0100
0000
1000
0000
,
0000
0000
0000
0100
0000
0000
0000
0000
0000
0000
0000
0000
0010
0000
0100
0000
0010
0000
0100
0000
0010
0000
0000
0000
,
0001
0010
0001
0010
0001
0000
0010
0000
0000
0100
0010
0100
,
0010
0000
0000
0001
0000
0010
0001
0010
0001
0010
0001
0010
,
0001
0010
0001
0010
0001
0010
0001
0010
0001
0010
0001
0000
,
0000
0000
0001
0010
0001
0010
0001
0010
,
0001
0010
0100
0010
0100
0010
0000
0000
,
1000
0100
0010
0001
0010
0100
1000
0100
,
0010
0000
0001
0000
1000
0100
0000
0000
,
0010
0100
0010
0100
0010
0100
0010
0100
,
0010
0100
0010
0100
0010
0100
0010
0001
,
0010
0001
0010
0001
0010
0001
0010
0100
,
0010
0100
0010
0100
0010
0100
1000
0100
,
1000
0100
1000
0100
1000
0100
0010
0100
,
0010
0000
0100
0010
0100
0000
0010
0001
,
0010
0001
0010
0001
0010
0001
0010
0001
,
0010
0001
0010
0100
0010
0100
0010
0100
,
0010
0100
0010
0100
1000
0100
1000
0100
,
1000
0100
0000
0100
0010
0001
0001
0010
,
0001
0010
0001
0010
0001
0010
0001
0100
,
0010
0100
0010
0100
1000
0100
1000
0100
,
0010
0001
0010
0100
1000
0100
0010
0001
,
0010
0100
1000
0100
0010
0000
0010
0100
,
0010
0100
0010
0100
0010
0000
0100
0010
,
0100
0010
0100
0000
2002
0000
0200
0000
,
0320
3233
2300
3200
,
0320
0200
2330
3200
,
0020
0302
0003
0200
,
2030
0310
3200
0320
,
0032
0020
0200
2333
,
0000
3200
0320
0002
,
0033
0000
0000
0000
0000
0000
0001
0010
,
0001
0010
0001
0010
0001
0010
0100
0010
,
0100
0010
0100
0010
0100
0010
0001
0010
,
0001
0010
0001
0010
0001
0010
0001
0010
,
0100
0000
0000
0000
0010
0001
0010
0001
,
0010
0001
0010
0001
0010
0100
0010
0100
,
0010
0100
0010
0100
0010
0100
1000
0100
,
1000
0100
1000
0100
1000
0100
0010
0001
,
0010
0001
0100
0010
1000
0010
0100
0010
,
0001
0010
0100
1000
0100
0010
0001
0010
,
0100
1000
0100
0001
0010
0100
0001
0100
,
0010
0100
0010
0100
0001
0010
0100
1000
,
0100
0010
0001
0010
0100
1000
0100
0010
,
0001
0010
0100
1000
0100
0010
0001
0010
,
0100
2000
3100
0010
0001
0010
0100
1000
,
0100
0010
0001
0010
0100
1000
0100
1000
,
0100
1000
0100
0010
0100
0010
0100
0010
,
0001
0010
0001
0010
0001
0010
0100
1000
,
0100
0010
0001
0010
0100
1000
0100
0010
,
0001
0010
0100
1000
0100
0010
0001
0010
,
0001
0010
0100
1000
0100
0010
0001
0010
,
0100
1000
0100
1000
0010
0001
0010
0100
,
1000
0100
1000
0010
0001
0010
0001
0100
,
1000
0000
0000
0100
0000
0000
0001
0000
0000
0100
0000
0000
0100
0000
0000
0000
0000
0000
1000
0000
0100
0000
1000
0000
,
0100
0000
0010
0000
0000
0001
0010
0001
0010
0000
0100
0000
,
0000
1000
0100
1000
0100
0000
0000
0010
0000
0000
0000
0001
,
0010
0001
0010
0000
0100
0000
0000
1000
0100
1000
0100
0000
,
0000
0010
0000
0000
0001
0010
0001
0010
0000
0000
0100
0000
,
0000
1000
0100
1000
0100
0000
0000
0010
0000
0000
0010
0100
,
0010
0100
0010
0100
0010
0100
0010
0100
0010
0100
0010
0000
,
0220
0330
0000
0000
;

//---------------dance-single - Copied from Copied f----------------
#NOTES:
     dance-single:
     Copied from Copied f:
     Edit:
     8:
     0.000,0.000,0.000,0.000,0.000,0.000,0.000,0.000,0.000,0.000:
0000
0000
0000
0000
;

//---------------dance-single - Copied from Copied f----------------
#NOTES:
     dance-single:
     Copied from Copied f:
     Medium:
     8:
     0.558,0.550,0.020,0.230,0.000,365.000,2.000,23.000,0.000,1.000:
0000
0000
0000
0000
,
0000
0000
0000
0000
,
0000
0000
0000
0000
,
1000
0100
0001
0100
,
1000
0100
0000
0000
1000
0100
1000
0000
,
1000
0100
1000
0000
1000
0100
1000
0000
,
0000
0000
0100
0010
0100
0000
0000
0000
,
0001
0010
0001
0000
0001
0010
0001
0000
,
0010
0001
0010
0000
1000
0100
1000
0000
,
0010
0100
0020
0000
0000
0000
0030
0000
,
0010
0100
0001
0000
0100
0010
0010
0001
,
0000
0001
0010
0001
0010
0001
0000
0010
,
0001
0001
0010
0100
0000
0000
1000
0100
,
1000
0100
0000
0000
0100
0010
0100
0000
,
0001
0010
0010
0001
0010
0000
0100
0010
,
0010
0000
0001
0010
0001
0010
0001
0010
,
0001
0010
0001
0010
0001
0010
0001
0000
,
0000
0000
0001
0010
0001
0000
0001
0010
,
0001
0000
0100
0010
0100
0000
0000
0000
,
1000
0100
0010
0000
1000
0100
0010
0001
,
0010
0000
0000
0000
1000
0100
0000
0000
,
0010
0100
0010
0000
0010
0100
0010
0000
,
0010
0100
0010
0000
0010
0100
0000
0000
,
0010
0001
0010
0000
0010
0001
0010
0000
,
0010
0100
0010
0000
0000
0100
1000
0100
,
0000
0100
1000
0100
0000
0100
0010
0100
,
0000
0000
0100
0010
0100
0000
0010
0001
,
0010
0000
0010
0001
0010
0000
0010
0001
,
0010
0000
0010
0100
0010
0000
0010
0100
,
0010
0000
0010
0000
1000
0100
1000
0000
,
1000
0100
0000
0000
0010
0000
0001
0000
,
0001
0010
0001
0000
0001
0010
0001
0100
,
0010
0100
0010
0000
1000
0100
1000
0000
,
0010
0001
0010
0100
1000
0100
0010
0000
,
0010
0100
1000
0100
0010
0000
0010
0100
,
0010
0000
0010
0100
0010
0000
0100
0010
,
0100
0010
0000
0000
2002
0000
0000
0000
,
0000
0000
3203
0300
2000
3000
0200
0300
,
0020
0030
0200
0000
0300
0000
0200
0300
,
0020
0030
0002
0000
0003
0000
0200
0300
,
2000
0000
0000
0000
3000
0020
0000
0030
,
0002
0003
0020
0000
0200
0000
0330
0000
,
2000
3000
0200
0300
0020
0000
0002
0000
,
0033
0000
0000
0000
0000
0000
0001
0010
,
0001
0000
0001
0010
0001
0000
0100
0010
,
0100
0000
0100
0010
0100
0000
0001
0010
,
0001
0000
0001
0010
0001
0000
0001
0000
,
0100
0000
0000
0000
0010
0001
0010
0000
,
0010
0001
0010
0000
0010
0100
0010
0000
,
0010
0100
0010
0000
0010
0000
1000
0100
,
1000
0000
1000
0100
1000
0000
0010
0001
,
0010
0001
0000
0010
1000
0010
1000
0010
,
1000
0010
0000
0000
0100
0010
0001
0010
,
0100
0000
0100
0001
0010
0001
0000
0001
,
0010
0001
0000
0000
0001
0010
0100
1000
,
0000
0000
0001
0010
0100
1000
0000
0000
,
0001
0010
0100
1000
0000
0000
0001
0010
,
0100
1000
0000
0000
0001
0010
0100
1000
,
0000
0000
0001
0010
0100
1000
0000
0000
,
0100
1000
0100
0010
0100
0000
0000
0000
,
0001
0010
0001
0000
0001
0010
0100
1000
,
0000
0000
0001
0010
0100
1000
0000
0000
,
0001
0010
0100
1000
0000
0000
0001
0010
,
0001
0000
0000
1000
0100
0010
0001
0000
,
0100
1000
0100
1000
0000
0001
0010
0100
,
1000
0000
0000
0010
0001
0010
0001
0100
,
1000
0100
0001
0100
0100
0000
1000
1000
,
0100
0000
0000
0000
0010
0001
0000
0000
,
0000
0000
1000
0100
0000
0000
0000
0001
,
0010
0001
0000
0000
0000
0100
1000
0100
,
0000
0000
0000
0010
0001
0010
0000
0000
,
0000
0100
1000
0100
0000
0000
0000
0000
,
0010
0010
0100
0100
0010
0010
0100
0100
,
0220
0330
0000
0000
;

//---------------dance-single - Copied from Copied f----------------
#NOTES:
     dance-single:
     Copied from Copied f:
     Easy:
     6:
     0.392,0.330,0.020,0.120,0.000,260.000,2.000,12.000,0.000,0.000:
0000
0000
0000
0000
,
0000
0000
0000
0000
,
0000
0000
0000
0010
,
1000
0100
0001
0100
,
1000
0010
1000
1000
,
1000
1000
1000
1000
,
0010
0100
0100
0100
,
0001
0001
0001
0001
,
0010
0010
1000
1000
,
0010
0020
0000
0030
,
0010
0001
0100
0010
,
0100
0010
0010
0010
,
0001
0010
0100
1000
,
1000
0100
0100
0100
,
0001
0010
0010
0100
,
0010
0001
0001
0001
,
0001
0001
0001
0001
,
0010
0001
0001
0001
,
0001
0100
0100
0100
,
1000
0010
1000
0010
,
0010
0100
1000
0100
,
0010
0010
0010
0010
,
0010
0010
0010
0100
,
0010
0010
0010
0010
,
0010
0010
0100
1000
,
0100
1000
0100
0010
,
0010
0100
0100
0010
,
0010
0010
0010
0010
,
0010
0010
0010
0010
,
0010
0010
1000
1000
,
1000
0100
0010
0001
,
0001
0001
0001
0001
,
0010
0010
1000
1000
,
0010
0010
1000
0010
,
0010
1000
0010
0010
,
0010
0010
0010
0100
,
0100
0100
2002
0000
,
0000
3003
2000
0000
,
3000
0000
0200
0000
0000
0000
0000
0300
,
0001
0002
0000
0003
,
2000
0000
0000
0000
0000
3000
0002
0000
,
0000
0000
0003
0200
,
0000
0000
0000
0300
0020
0000
0000
0000
,
0000
0000
0000
0030
0001
0000
0001
0000
,
0001
0001
0001
0100
,
0100
0100
0100
0001
,
0001
0001
0001
0001
,
0100
0100
0010
0010
,
0010
0010
0010
0010
,
0010
0010
0010
1000
,
1000
1000
1000
0010
,
0010
0100
1000
1000
,
1000
0100
0100
0001
,
0100
0100
0010
0010
,
0010
0100
0001
0100
,
1000
0001
0100
0010
,
0001
0100
0100
0001
,
0100
0010
0001
0100
,
0100
0001
0100
0010
,
0100
0100
0100
0010
,
0001
0001
0001
0100
,
0100
0001
0100
0100
,
0001
0100
0010
0001
,
0001
0100
0100
0001
,
0100
0100
0010
0010
,
1000
0100
0001
0001
,
1000
0001
0100
1000
,
0100
0100
0010
0010
,
0010
1000
0100
0100
,
0010
0010
0010
1000
,
0100
0100
0001
0100
,
0100
1000
0100
0000
,
0010
0100
0010
0100
,
0220
0330
0000
0000
;
